Tokyo Eye 2020 S05E01

Posted By: Tavaz
SD / HDTV IMDb
Tokyo Eye 2020 S05E01

Tokyo Eye 2020 S05E01
HDTV | MKV | 1920x1080 | English | H264 @ 7917 kbps | MPEG Audio @ 128 kbps | 27 min 59 s | 1.58 GiB
Subtitles: Spanish



b54cf602998742acadd02739122e9ea0.mkv (1.6 GB)



General
Unique ID : 267595661153619678090670601845983009967 (0xC9510CB7DA8F8EC0F446DCC81771DCAF)
Complete name : ./b54cf602998742acadd02739122e9ea0.mkv
Format : Matroska
Format version : Version 4 / Version 2
File size : 1.58 GiB
Duration : 27 min 59 s
Overall bit rate : 8 077 kb/s
Encoded date : UTC 2019-01-09 17:49:23
Writing application : mkvmerge v23.0.0 ('The Bride Said No') 64-bit
Writing library : libebml v1.3.6 + libmatroska v1.4.9

Video
ID : 1
Format : AVC
Format/Info : Advanced Video Codec
Format profile : High@L4
Format settings : CABAC / 4 Ref Frames
Format settings, CABAC : Yes
Format settings, RefFrames : 4 frames
Codec ID : V_MPEG4/ISO/AVC
Duration : 27 min 59 s
Bit rate : 7 917 kb/s
Width : 1 920 pixels
Height : 1 080 pixels
Display aspect ratio : 16:9
Frame rate mode : Constant
Frame rate : 29.970 (30000/1001) FPS
Color space : YUV
Chroma subsampling : 4:2:0
Bit depth : 8 bits
Scan type : MBAFF
Bits/(Pixel*Frame) : 0.127
Stream size : 1.55 GiB (98%)
Default : Yes
Forced : No

Audio
ID : 2
Format : MPEG Audio
Format version : Version 1
Format profile : Layer 2
Codec ID : A_MPEG/L2
Codec ID/Hint : MP2
Duration : 27 min 59 s
Bit rate mode : Constant
Bit rate : 128 kb/s
Channel(s) : 2 channels
Sampling rate : 48.0 kHz
Frame rate : 41.667 FPS (1152 SPF)
Compression mode : Lossy
Stream size : 25.6 MiB (2%)
Language : English
Default : Yes
Forced : No

Text
ID : 3
Format : DVB Subtitle
Muxing mode : zlib
Codec ID : S_DVBSUB
Codec ID/Info : Picture based subtitle format used on DVBs
Duration : 27 min 54 s
Bit rate : 48.0 kb/s
Count of elements : 5045
Stream size : 9.58 MiB (1%)
Language : Spanish
Default : No
Forced : No





Tokyo Eye 2020 S05E01


Tokyo Eye 2020 S05E01


Tokyo Eye 2020 S05E01


Tokyo Eye 2020 S05E01

All episodes