This Hour Has 22 Minutes S26E11

Posted By: Tavaz
1080p (FullHD) / WEBRip IMDb
This Hour Has 22 Minutes S26E11

This Hour Has 22 Minutes S26E11
WEBRip | MKV | 1920x1080 | English | H264 @ 5652 kbps | AC-3 @ 384 kbps | 44 min 11 s | 1.86 GiB
Genre: Comedy

This Hour Has 22 Minutes is a weekly Canadian television comedy that airs on CBC Television. Launched in 1993 during Canada's 35th general election, the show focuses on Canadian politics, combining news parody, sketch comedy and satirical editorials. Originally featuring Cathy Jones, Rick Mercer, Greg Thomey and Mary Walsh, the series featured satirical sketches of the weekly news and Canadian political events. The show's format is a mock news program, intercut with comic sketches, parody commercials and humorous interviews of public figures. The on-location segments are frequently filmed with slanted camera angles.

Its full name is a parody of This Hour Has Seven Days, a CBC newsmagazine from the 1960s; the "22 Minutes" refers to the fact that a half-hour television program in Canada and the U.S. is typically 22 minutes long with eight minutes of commercials.

Jones and Walsh had previously worked together on the sketch comedy series CODCO, on which Thomey sometimes appeared as a guest. Mercer had been a notable young writer and performer on his own, touring several successful one-man shows of comedic political commentary.

de2b6e0fc2af416c9d7977578746658c.mkv (1.9 GB)



General
Unique ID : 41038188033094966645010474131953936466 (0x1EDFAAE29111D3109FD5BDA3B725E852)
Complete name : ./de2b6e0fc2af416c9d7977578746658c.mkv
Format : Matroska
Format version : Version 4 / Version 2
File size : 1.86 GiB
Duration : 44 min 11 s
Overall bit rate : 6 038 kb/s
Encoded date : UTC 2018-12-13 20:10:13
Writing application : mkvmerge v27.0.0 ('Metropolis') 64-bit
Writing library : libebml v1.3.6 + libmatroska v1.4.9

Video
ID : 1
Format : AVC
Format/Info : Advanced Video Codec
Format profile : High@L4.1
Format settings : CABAC / 4 Ref Frames
Format settings, CABAC : Yes
Format settings, RefFrames : 4 frames
Codec ID : V_MPEG4/ISO/AVC
Duration : 44 min 10 s
Bit rate : 5 653 kb/s
Width : 1 920 pixels
Height : 1 080 pixels
Display aspect ratio : 16:9
Frame rate mode : Constant
Frame rate : 23.976 (24000/1001) FPS
Color space : YUV
Chroma subsampling : 4:2:0
Bit depth : 8 bits
Scan type : Progressive
Bits/(Pixel*Frame) : 0.114
Stream size : 1.74 GiB (94%)
Writing library : x264 core 157 r2935 545de2f
Encoding settings : cabac=1 / ref=4 / deblock=1:-3:-3 / analyse=0x3:0x113 / me=umh / subme=8 / psy=1 / psy_rd=1.00:0.00 / mixed_ref=1 / me_range=16 / chroma_me=1 / trellis=2 / 8x8dct=1 / cqm=0 / deadzone=21,11 / fast_pskip=1 / chroma_qp_offset=-2 / threads=18 / lookahead_threads=3 / sliced_threads=0 / nr=0 / decimate=1 / interlaced=0 / bluray_compat=0 / constrained_intra=0 / bframes=3 / b_pyramid=2 / b_adapt=1 / b_bias=0 / direct=3 / weightb=1 / open_gop=0 / weightp=2 / keyint=250 / keyint_min=23 / scenecut=40 / intra_refresh=0 / rc_lookahead=50 / rc=crf / mbtree=1 / crf=20.0 / qcomp=0.60 / qpmin=0 / qpmax=69 / qpstep=4 / ip_ratio=1.40 / aq=1:1.00
Language : English
Default : Yes
Forced : No
Color range : Limited
Matrix coefficients : BT.709

Audio
ID : 2
Format : AC-3
Format/Info : Audio Coding 3
Format settings, Endianness : Big
Codec ID : A_AC3
Duration : 44 min 11 s
Bit rate mode : Constant
Bit rate : 384 kb/s
Channel(s) : 6 channels
Channel positions : Front: L C R, Side: L R, LFE
Sampling rate : 48.0 kHz
Frame rate : 31.250 FPS (1536 SPF)
Bit depth : 16 bits
Compression mode : Lossy
Stream size : 121 MiB (6%)
Language : English
Service kind : Complete Main
Default : Yes
Forced : No





This Hour Has 22 Minutes S26E11


This Hour Has 22 Minutes S26E11


This Hour Has 22 Minutes S26E11


This Hour Has 22 Minutes S26E11


This Hour Has 22 Minutes S26E11

All episodes