Subcategories

Masabumi Kikuchi - Susto +2 (1981) {2016 Japan Crossover & Fusion Collection 1000 Series SICJ 169}

Posted By: ruskaval
Masabumi Kikuchi - Susto +2 (1981) {2016 Japan Crossover & Fusion Collection 1000 Series SICJ 169}

Masabumi Kikuchi - Susto +2 (1981) {2016 Japan Crossover & Fusion Collection 1000 Series SICJ 169}
EAC rip (secure mode) | FLAC (tracks)+CUE+LOG -> 411 Mb | MP3 @320 -> 131 Mb
Full Artwork @ 600 dpi (png) -> 289 Mb | 5% repair rar
© 1981, 2016 Columbia / Sony Music Japan | SICJ 169
Jazz / Fusion / Jazz Funk / Keyboards

Reissue with the latest DSD remastering. Comes with liner notes. A great album of funky Japanese fusion – one of the few sets from the Japanese scene of the late 70s that got any sort of wider release in the US – and a treasure that we've loved for years! The set's got a really great sound – soulful and funky, but sharp too – in a lineup that features a variety of keyboards from Masabumi Kikuchi, plus work by Terumasa Hino on trumpet, Steve Grossman and Dave Liebman on saxes, and James Mason on guitar! The best cuts have a funky feel that's in the CTI/Kudu mode – perhaps mixed with a bit of Herbie Hancock keyboard jamming – and the album's a surprisingly lost funky gem in the Columbia catalog of the early 80s, with a much harder edge than some of the other work on the label at the time!
Masabumi Kikuchi - Susto +2 (1981) {2016 Japan Crossover & Fusion Collection 1000 Series SICJ 169}


Personnel:
Masabumi Kikuchi (Fender Rhodes elp, Korg PS-3300, PS-3200, MS-20,DL-50, BX-3, synthe bass SB-100, Sansui P-1, parametric equalizer for the sound system)
Terumasa Hino ( cor, bolivian-fl)
Steve Grossman (ss, ts)
Dave Liebman (ss, ts, a-fl)
Richie Morales (ds)
Victor "Yahya" Jones (ds)
Hassan Jenkins (b)
James Mason (gt)
Butch Campbell (gt)
Marlon Graves (gt)
Barry Finnerty (gt)
Billy Paterson (gt)
Alyrio Lima (perc)
Aiyb Dieng (perc)
Sam Morrison (wind driver, ss)
Airto Moreira (perc)
Ed Walsh (synth prog)

tracklist:
01 - Circle-Line
02 - City Snow
03 - Gumbo
04 - New Native

bonus tracks
05 - Gumbo (Single Version)
06 - Circle-Line (Single Version)

Exact Audio Copy V1.1 from 23. June 2015

EAC extraction logfile from 25. September 2016, 11:48

Masabumi Kikuchi / Susto

Used drive : HL-DT-STDVDRAM GP50NW41 Adapter: 1 ID: 0

Read mode : Secure
Utilize accurate stream : Yes
Defeat audio cache : Yes
Make use of C2 pointers : No

Read offset correction : 6
Overread into Lead-In and Lead-Out : No
Fill up missing offset samples with silence : Yes
Delete leading and trailing silent blocks : No
Null samples used in CRC calculations : Yes
Used interface : Native Win32 interface for Win NT & 2000
Gap handling : Appended to previous track

Used output format : User Defined Encoder
Selected bitrate : 1024 kBit/s
Quality : High
Add ID3 tag : No
Command line compressor : C:\Program Files (x86)\FLAC Frontend\tools\flac.exe
Additional command line options : -8 -V -T "ARTIST=%artist%" -T "TITLE=%title%" -T "ALBUM=%albumtitle%" -T "DATE=%year%" -T "TRACKNUMBER=%tracknr%" -T "TOTALTRACKS=%numtracks%" -T "GENRE=%genre%" -T "ALBUMARTIST=%albumartist%" -T "ALBUM ARTIST=%albumartist%" -T "COMMENT=EAC Secure Mode, Test & Copy, AccurateRip, FLAC -8" %source%


TOC of the extracted CD

Track | Start | Length | Start sector | End sector
––––––––––––––––––––––––––––-
1 | 0:00.00 | 14:57.32 | 0 | 67306
2 | 14:57.32 | 7:41.45 | 67307 | 101926
3 | 22:39.02 | 10:14.25 | 101927 | 148001
4 | 32:53.27 | 15:00.01 | 148002 | 215502
5 | 47:53.28 | 3:50.41 | 215503 | 232793
6 | 51:43.69 | 3:38.50 | 232794 | 249193


Track 1

Filename D:\_EAC\Masabumi Kikuchi - Susto (1980) [FLAC] {SICJ 169}\01 - Circle-Line.wav

Pre-gap length 0:00:02.00

Peak level 100.0 %
Extraction speed 3.4 X
Track quality 100.0 %
Test CRC A79F8949
Copy CRC A79F8949
Accurately ripped (confidence 2) [13615157] (AR v2)
Copy OK

Track 2

Filename D:\_EAC\Masabumi Kikuchi - Susto (1980) [FLAC] {SICJ 169}\02 - City Snow.wav

Peak level 100.0 %
Extraction speed 4.0 X
Track quality 100.0 %
Test CRC EEF253E6
Copy CRC EEF253E6
Accurately ripped (confidence 2) [8A50FE96] (AR v2)
Copy OK

Track 3

Filename D:\_EAC\Masabumi Kikuchi - Susto (1980) [FLAC] {SICJ 169}\03 - Gumbo.wav

Pre-gap length 0:00:01.37

Peak level 100.0 %
Extraction speed 4.6 X
Track quality 100.0 %
Test CRC 81699BCB
Copy CRC 81699BCB
Accurately ripped (confidence 2) [2F26EE48] (AR v2)
Copy OK

Track 4

Filename D:\_EAC\Masabumi Kikuchi - Susto (1980) [FLAC] {SICJ 169}\04 - New Native.wav

Peak level 100.0 %
Extraction speed 4.9 X
Track quality 99.9 %
Test CRC EEE8AB6D
Copy CRC EEE8AB6D
Accurately ripped (confidence 2) [3EF0773C] (AR v2)
Copy OK

Track 5

Filename D:\_EAC\Masabumi Kikuchi - Susto (1980) [FLAC] {SICJ 169}\05 - Gumbo (Single Version).wav

Pre-gap length 0:00:03.74

Peak level 100.0 %
Extraction speed 5.0 X
Track quality 100.0 %
Test CRC D22423EA
Copy CRC D22423EA
Accurately ripped (confidence 2) [D623A4A4] (AR v2)
Copy OK

Track 6

Filename D:\_EAC\Masabumi Kikuchi - Susto (1980) [FLAC] {SICJ 169}\06 - Circle-Line (Single Version).wav

Pre-gap length 0:00:01.74

Peak level 100.0 %
Extraction speed 5.2 X
Track quality 100.0 %
Test CRC 1C64E088
Copy CRC 1C64E088
Accurately ripped (confidence 2) [DFBA4226] (AR v2)
Copy OK


All tracks accurately ripped

No errors occurred

End of status report

==== Log checksum 9CD799C5FED0EAC67A5AC5BCA828FAE06B2F66852A6091F87760F69CFBFD92B3 ====


Masabumi Kikuchi - Susto +2 (1981) {2016 Japan Crossover & Fusion Collection 1000 Series SICJ 169}

Masabumi Kikuchi - Susto +2 (1981) {2016 Japan Crossover & Fusion Collection 1000 Series SICJ 169}


see more Masabumi Kikuchi…


===